Only Connect S14E17 Motorheads v LARPers Torrent Free Download

Seeders : 119   &   Leechers : 961      12-02-2019 (6 days)
Only Connect S14E17 Motorheads v LARPers Torrent Download
Added: ago by revittony ***** in TV   390.5 MB   Hits : 16
Info Hash: 657BE8762F1C606BE3034F8D140966235F9F9AB9 Download
Only Connect S14E17 Motorheads v LARPers Torrent Download

Anonymous and Direct Download movies , software , shows...

Fast Safe Anonymous
movies, software, shows...

Torrent Description



http://www.imdb.com/title/tt1294009



Format : MPEG-4
Format profile : Base Media
Codec ID : isom (isom/iso2/avc1/mp41)
File size : 342 MiB
Duration : 28 min 54 s
Overall bit rate : 1 652 kb/s


Video
ID : 1
Format : AVC
Format/Info : Advanced Video Codec
Format profile : [email protected]
Format settings : CABAC / 4 Ref Frames
Format settings, CABAC : Yes
Format settings, RefFrames : 4 frames
Format settings, GOP : M=8, N=96
Codec ID : avc1
Codec ID/Info : Advanced Video Coding
Duration : 28 min 54 s
Bit rate : 1 554 kb/s
Width : 960 pixels
Height : 540 pixels
Display aspect ratio : 16:9
Frame rate mode : Constant
Frame rate : 25.000 FPS
Color space : YUV
Chroma subsampling : 4:2:0
Bit depth : 8 bits
Scan type : Progressive
Bits/(Pixel*Frame) : 0.120
Stream size : 321 MiB (94%)
Color range : Limited
Color primaries : BT.709
Transfer characteristics : BT.709
Matrix coefficients : BT.709
Codec configuration box : avcC

Audio
ID : 2
Format : AAC LC SBR
Format/Info : Advanced Audio Codec Low Complexity with Spectral Band Replication
Commercial name : HE-AAC
Format settings : Implicit
Codec ID : mp4a-40-2
Duration : 28 min 54 s
Bit rate mode : Constant
Bit rate : 96.0 kb/s
Channel(s) : 2 channels
Channel layout : L R
Sampling rate : 48.0 kHz
Frame rate : 23.438 FPS (2048 SPF)
Compression mode : Lossy
Stream size : 19.6 MiB (6%)
Language : English
Default : Yes
Alternate group : 1




Sharing Widget


No Comments For This Torrent . Be The First to Comment

You must Login to Comment . Click Here to Login

Menu 1

Some content in menu 1.

Only Connect S14E17 Motorheads v LARPers revittony (Size: 390.5 MB)
  Only Connect S14E17 Motorheads v LARPers revittony 390.5 MB
tracker name
udp://tracker.leechers-paradise.org:6969/announce
udp://zer0day.ch:1337/announce
udp://open.demonii.com:1337/announce
udp://tracker.coppersurfer.tk:6969/announce
udp://exodus.desync.com:6969/announce
µTorrent compatible trackers list

Relative Torrents

Torrent Name Size Age SEED LEECH
Home Town 2017 S03E06 A Modern Millennia Makeover 720p WEBRip x264-CAFFEiNE [ez
Posted by    EZTVag   in   TV
1.2 GB 3 minutes 315 498
Great British Railway Journeys S10E11 72p HDTV x264-QPEL [eztv]
Posted by    EZTVag   in   TV
530.4 MB 3 minutes 970 388
Winner Cake All S01E08 Apolo Ohno Says O Yes to Cake 480p x264-mSD [eztv]
Posted by    EZTVag   in   TV
246.4 MB 3 minutes 900 475
Home Town 2017 S03E06 A Modern Millennia Makeover WEBRip x264-CAFFEiNE [eztv]
Posted by    EZTVag   in   TV
448.0 MB 3 minutes 970 837
Winner Cake All S01E08 Apolo Ohno Says O Yes to Cake 720p WEBRip x264-CAFFEiNE
Posted by    EZTVag   in   TV
1.2 GB 8 minutes 525 511