Jinn 2019 HDRip XviD AC3 LLG Torrent Free Download

Seeders : 466   &   Leechers : 900      11-02-2019 (1 week)
Jinn 2019 HDRip XviD AC3 LLG Torrent Download
Added: ago by LifeLongg ***** in Movies   1.0 GB   Hits : 19
Info Hash: 7ED9C405DCAB50B58F7DBB1F132C369BEC690401 Download
Jinn 2019 HDRip XviD AC3 LLG Torrent Download

Anonymous and Direct Download movies , software , shows...

Fast Safe Anonymous
movies, software, shows...
Jinn
Fantasy /Horror /Thriller  .   97 min   4.2/10
Director : Ajmal Zaheer Ahmad  
Writer: Ajmal Zaheer Ahmad  
Tags: Jinn  2019  HDRip  XviD  AC3  LLG  

Released:
14 Apr 2014
Shawn, an automotive designer, enjoys an idyllic life with his new wife Jasmine until it is interrupted by a cryptic message. The message warns of imminent danger and a curse that has afflicted his family for generations. Having lost his parents as a child, Shawn d.... See More oesn't believe this unsettling revelation of his past....until strange things start to happen. Unable to explain the threats and fearing for his life, Shawn turns to Gabriel and Father Westhoff, a mysterious duo claiming to have answers. With their help, and the aid of Ali, a shackled mental patient, Shawn discovers that there is far more to this world than he ever imagined. These revelations set Shawn on a collision course with the unknown, and he alone must find the strength protect his family and confront the ancient evil that is hunting them.

Torrent Description



Quote:




******************************Thumbnail:**********************



******************************Screenshots:********************

Screenshot 1

Screenshot 2

Screenshot 3

Screenshot 4

Screenshot 5

Screenshot 6

Screenshot 7

Screenshot 8

Screenshot 9

Screenshot 0


******************************************************

Jinn.2019.HDRip.XviD.AC3.LLG.mp4
Format : MPEG-4
Format profile : Base Media
Codec ID : isom (isom/iso2/avc1/mp41)
File size : 1.01 GiB
Duration : 1 h 32 min
Overall bit rate mode : Variable
Overall bit rate : 1 577 kb/s
Writing application : Lavf57.83.100

Video
ID : 1
Format : AVC
Format/Info : Advanced Video Codec
Format profile : [email protected]
Format settings : CABAC / 1 Ref Frames
Format settings, CABAC : Yes
Format settings, RefFrames : 1 frame
Codec ID : avc1
Codec ID/Info : Advanced Video Coding
Duration : 1 h 32 min
Bit rate mode : Variable
Bit rate : 1 189 kb/s
Maximum bit rate : 3 600 kb/s
Width : 720 pixels
Height : 304 pixels
Display aspect ratio : 2.35:1
Frame rate mode : Constant
Frame rate : 23.976 (23976/1000) FPS
Color space : YUV
Chroma subsampling : 4:2:0
Bit depth : 8 bits
Scan type : Progressive
Bits/(Pixel*Frame) : 0.227
Stream size : 784 MiB (75%)
Language : English
Codec configuration box : avcC

Audio
ID : 2
Format : AC-3
Format/Info : Audio Coding 3
Commercial name : Dolby Digital
Codec ID : ac-3
Duration : 1 h 32 min
Bit rate mode : Constant
Bit rate : 384 kb/s
Channel(s) : 6 channels
Channel layout : L R C LFE Ls Rs
Sampling rate : 48.0 kHz
Frame rate : 31.250 FPS (1536 SPF)
Bit depth : 16 bits
Compression mode : Lossy
Stream size : 253 MiB (24%)
Language : English
Service kind : Complete Main
Default : Yes
Alternate group : 1



********************************************************





Sharing Widget


No Comments For This Torrent . Be The First to Comment

You must Login to Comment . Click Here to Login

Menu 1

Some content in menu 1.

Jinn 2019 HDRip XviD AC3 LLG (Size: 1.0 GB)
  Jinn 2019 HDRip XviD AC3 LLG 1.0 GB
tracker name
udp://tracker.leechers-paradise.org:6969/announce
udp://zer0day.ch:1337/announce
udp://open.demonii.com:1337/announce
udp://tracker.coppersurfer.tk:6969/announce
udp://exodus.desync.com:6969/announce
µTorrent compatible trackers list

Relative Torrents

Torrent Name Size Age SEED LEECH
Dispatches 2019 02 18 Grenfell-Did The Fre Brigade Fail 480p x264-mSD [eztv]
Posted by    EZTVag   in   TV
74.7 MB 10 minutes 262 749
Coronation Street 18th Feb 2019 part 2 180p (Deep61) [WWRG]
Posted by    Deep61   in   TV
653.6 MB 10 minutes 107 340
Dispatches 2019 02 18 Grenfell-Did The Fre Brigade Fail 720p HDTV X264-DEADPOOL
Posted by    EZTVag   in   TV
220.4 MB 25 minutes 78 418
Life Without Principle 2011 720p BluRay C3 x264-EbP
Posted by    allonsygui   in   Movies
4.3 GB 30 minutes 857 644
[Request]THE POWER OF LOVE - THE ULTIMAT COLLECTION[5CD][EAC][2019][PsPBuRnOuT]
Posted by    PsPBuRnOuT   in   Music
2.6 GB 36 minutes 454 321