Hercules (2014) Extended Cut 1080p 10bit Torrent Free Download

Seeders : 50   &   Leechers : 435      12-02-2019 (6 days)
Hercules (2014) Extended Cut 1080p 10bit Torrent Download
Added: ago by McuDudeS ***** in Movies   3.4 GB   Hits : 19
Info Hash: B1C1188BF980F2756338B4BECFB33BB3C155876A Download
Hercules (2014) Extended Cut 1080p 10bit Torrent Download

Anonymous and Direct Download movies , software , shows...

Fast Safe Anonymous
movies, software, shows...
Hercules
Animation /Adventure /Comedy /Family /Fantasy /Musical /Romance  .   93 min   7.3/10
Director : Ron Clements  John Musker  
Tags: Hercules  (2014)  Extended  Cut  1080p  10bit  

Released:
27 Jun 1997
Hercules, son of the Greek God, Zeus, is turned into a half-god, half-mortal by evil Hades, God of the Underworld, who plans to overthrow Zeus. Hercules is raised on Earth and retains his god-like strength, but when he discovers his immortal heritage Zeus tells him.... See More that to return to Mount Olympus he must become a true hero. Hercules becomes a famous hero with the help of his friend Pegasus and his personal trainer, Phil the satyr. Hercules battles monsters, Hades and the Titans, but it is his self-sacrifice to rescue his love Meg which makes him a true hero.

Torrent Description





Discover the truth behind the legend...





Hercules (2014) Extended Cut 1080p 10bit Bluray x265 HEVC [Org BD 5.1 Hindi + DD 5.1 English] ESubs ~ TombDoc


Code:

Format : Matroska
Format version : Version 4
File size : 3.33 GiB
Duration : 1 h 41 min
Overall bit rate : 4 698 kb/s
Writing frontend : TombDoc

Video
ID : 1
Format : HEVC
Format/Info : High Efficiency Video Coding
Format profile : Main [email protected]@Main
Codec ID : V_MPEGH/ISO/HEVC
Duration : 1 h 41 min
Bit rate : 3 639 kb/s
Width : 1 920 pixels
Height : 800 pixels
Display aspect ratio : 2.40:1
Frame rate mode : Constant
Frame rate : 23.976 (24000/1001) FPS
Color space : YUV
Chroma subsampling : 4:2:0
Bit depth : 10 bits
Bits/(Pixel*Frame) : 0.099
Stream size : 2.58 GiB (77%)
Writing library : x265 3.0_RC+11-9a975542fe39:[Windows][MSVC 1920][64 bit] 10bit
Encoding settings : cpuid=1049583 / frame-threads=3 / numa-pools=8 / wpp / no-pmode / no-pme / no-psnr / no-ssim / log-level=2 / input-csp=1 / input-res=1920x800 / interlace=0 / total-frames=146152 / level-idc=0 / high-tier=1 / uhd-bd=0 / ref=4 / no-allow-non-conformance / no-repeat-headers / annexb / no-aud / no-hrd / info / hash=0 / no-temporal-layers / open-gop / min-keyint=23 / keyint=250 / gop-lookahead=0 / bframes=8 / b-adapt=2 / b-pyramid / bframe-bias=0 / rc-lookahead=25 / lookahead-slices=4 / scenecut=40 / radl=0 / no-splice / no-intra-refresh / ctu=64 / min-cu-size=8 / rect / no-amp / max-tu-size=32 / tu-inter-depth=1 / tu-intra-depth=1 / limit-tu=0 / rdoq-level=2 / dynamic-rd=0.00 / ssim-rd / signhide / no-tskip / nr-intra=0 / nr-inter=0 / no-constrained-intra / strong-intra-smoothing / max-merge=3 / limit-refs=3 / limit-modes / me=3 / subme=3 / merange=57 / temporal-mvp / weightp / no-weightb / no-analyze-src-pics / deblock=0:0 / sao / no-sao-non-deblock / rd=4 / no-early-skip / rskip / no-fast-intra / no-tskip-fast / no-cu-lossless / no-b-intra / no-splitrd-skip / rdpenalty=0 / psy-rd=0.00 / psy-rdoq=1.00 / no-rd-refine / no-lossless / cbqpoffs=0 / crqpoffs=0 / rc=abr / bitrate=3650 / qcomp=0.60 / qpstep=4 / stats-write=0 / stats-read=2 / cplxblur=20.0 / qblur=0.5 / ipratio=1.40 / pbratio=1.30 / aq-mode=3 / aq-strength=1.00 / cutree / zone-count=0 / no-strict-cbr / qg-size=32 / no-rc-grain / qpmax=69 / qpmin=0 / no-const-vbv / sar=0 / overscan=0 / videoformat=5 / range=0 / colorprim=2 / transfer=2 / colormatrix=2 / chromaloc=0 / display-window=0 / max-cll=0,0 / min-luma=0 / max-luma=1023 / log2-max-poc-lsb=8 / vui-timing-info / vui-hrd-info / slices=1 / no-opt-qp-pps / no-opt-ref-list-length-pps / no-multi-pass-opt-rps / scenecut-bias=0.05 / no-opt-cu-delta-qp / aq-motion / no-hdr / no-hdr-opt / no-dhdr10-opt / no-idr-recovery-sei / analysis-reuse-level=5 / scale-factor=0 / refine-intra=0 / refine-inter=0 / refine-mv=0 / refine-ctu-distortion=0 / no-limit-sao / ctu-info=0 / no-lowpass-dct / refine-analysis-type=0 / copy-pic=1 / max-ausize-factor=1.0 / no-dynamic-refine / no-single-sei / hevc-aq / qp-adaptation-range=1.00
Default : Yes
Forced : No

Audio #1
ID : 2
Format : AC-3
Format/Info : Audio Coding 3
Commercial name : Dolby Digital
Codec ID : A_AC3
Duration : 1 h 41 min
Bit rate mode : Constant
Bit rate : 640 kb/s
Channel(s) : 6 channels
Channel layout : L R C LFE Ls Rs
Sampling rate : 48.0 kHz
Frame rate : 31.250 FPS (1536 SPF)
Bit depth : 16 bits
Compression mode : Lossy
Stream size : 465 MiB (14%)
Title : Org EC BD 5.1 640Kbps ~ TombDoc
Language : Hindi
Service kind : Complete Main
Default : Yes
Forced : Yes

Audio #2
ID : 3
Format : AC-3
Format/Info : Audio Coding 3
Commercial name : Dolby Digital
Codec ID : A_AC3
Duration : 1 h 41 min
Bit rate mode : Constant
Bit rate : 384 kb/s
Channel(s) : 6 channels
Channel layout : L R C LFE Ls Rs
Sampling rate : 48.0 kHz
Frame rate : 31.250 FPS (1536 SPF)
Bit depth : 16 bits
Compression mode : Lossy
Stream size : 279 MiB (8%)
Title : DD 5.1 English
Language : English
Service kind : Complete Main
Default : No
Forced : No

Text #1
ID : 4
Format : PGS
Muxing mode : zlib
Codec ID : S_HDMV/PGS
Codec ID/Info : Picture based subtitle format used on BDs/HD-DVDs
Duration : 1 h 33 min
Bit rate : 28.0 kb/s
Count of elements : 1950
Stream size : 18.7 MiB (1%)
Title : Eng BD-PGS
Language : English
Default : Yes
Forced : Yes

Text #2
ID : 5
Format : PGS
Muxing mode : zlib
Codec ID : S_HDMV/PGS
Codec ID/Info : Picture based subtitle format used on BDs/HD-DVDs
Duration : 1 h 33 min
Bit rate : 32.4 kb/s
Count of elements : 2322
Stream size : 21.7 MiB (1%)
Title : Eng BD-PGS-SDH
Language : English
Default : No
Forced : No

Text #3
ID : 6
Format : PGS
Muxing mode : zlib
Codec ID : S_HDMV/PGS
Codec ID/Info : Picture based subtitle format used on BDs/HD-DVDs
Duration : 1 h 39 min
Bit rate : 60.4 kb/s
Count of elements : 3041
Stream size : 42.9 MiB (1%)
Title : Commentary
Language : English
Default : No
Forced : No

Menu
00:00:00.000 : en:Chapter 01
00:08:10.782 : en:Chapter 02
00:14:15.813 : en:Chapter 03
00:23:38.250 : en:Chapter 04
00:31:23.757 : en:Chapter 05
00:41:12.136 : en:Chapter 06
00:51:34.341 : en:Chapter 07
00:57:31.281 : en:Chapter 08
01:05:57.620 : en:Chapter 09
01:16:07.855 : en:Chapter 10
01:24:28.897 : en:Chapter 11
01:34:24.700 : en:Chapter 12



Code:

Source: Hercules 2014 Extended Cut 2in1 1080p Blu-ray AVC DTS-HD MA 7.1






Sharing Widget


No Comments For This Torrent . Be The First to Comment

You must Login to Comment . Click Here to Login

Menu 1

Some content in menu 1.

Hercules (2014) Extended Cut 1080p 10bit Bluray x265 HEVC [Org BD 5 1 (Size: 3.4 GB)
  Hercules (2014) Extended Cut 1080p 10bit Bluray x265 HEVC [Org BD 5 1 3.4 GB
tracker name
udp://tracker.leechers-paradise.org:6969/announce
udp://zer0day.ch:1337/announce
udp://open.demonii.com:1337/announce
udp://tracker.coppersurfer.tk:6969/announce
udp://exodus.desync.com:6969/announce
µTorrent compatible trackers list

Relative Torrents

Torrent Name Size Age SEED LEECH
Home Town 2017 S03E06 A Modern Millennia Makeover 720p WEBRip x264-CAFFEiNE [ez
Posted by    EZTVag   in   TV
1.2 GB 6 minutes 315 498
Great British Railway Journeys S10E11 72p HDTV x264-QPEL [eztv]
Posted by    EZTVag   in   TV
530.4 MB 6 minutes 970 388
Winner Cake All S01E08 Apolo Ohno Says O Yes to Cake 480p x264-mSD [eztv]
Posted by    EZTVag   in   TV
246.4 MB 6 minutes 900 475
Home Town 2017 S03E06 A Modern Millennia Makeover WEBRip x264-CAFFEiNE [eztv]
Posted by    EZTVag   in   TV
448.0 MB 6 minutes 970 837
Winner Cake All S01E08 Apolo Ohno Says O Yes to Cake 720p WEBRip x264-CAFFEiNE
Posted by    EZTVag   in   TV
1.2 GB 11 minutes 525 511