Gifted (2017) 1080p 10bit Bluray x265 HE Torrent Free Download

Seeders : 872   &   Leechers : 552      12-02-2019 (1 week)
Gifted (2017) 1080p 10bit Bluray x265 HE Torrent Download
Added: ago by McuDudeS ***** in Movies   3.2 GB   Hits : 20
Info Hash: 52245A1C1011BDC8BE0CAA7A78708CA153627A0E Download
Gifted (2017) 1080p 10bit Bluray x265 HE Torrent Download

Anonymous and Direct Download movies , software , shows...

Fast Safe Anonymous
movies, software, shows...
Gifted
Drama   .   101 min   7.6/10
Director : Marc Webb  
Writer: Tom Flynn  
Tags: Gifted  (2017)  1080p  10bit  Bluray  x265  

Released:
12 Apr 2017
Frank Adler (Chris Evans) is a single man raising a child prodigy - his spirited young niece Mary (Mckenna Grace) in a coastal town in Florida. Frank's plans for a normal school life for Mary are foiled when the seven-year-old's mathematical abilities come to the a.... See More ttention of Frank's formidable mother Evelyn (Lindsay Duncan) whose plans for her granddaughter threaten to separate Frank and Mary. Octavia Spencer plays Roberta, Frank and Mary's landlady and best friend. Jenny Slate is Mary's teacher, Bonnie, a young woman whose concern for her student develops into a connection with her uncle as well.

Torrent Description





an extraordinary girl...





Gifted (2017) 1080p 10bit Bluray x265 HEVC [Org BD 5.1 Hindi + DD 5.1 English] MSubs ~ TombDoc


Code:

Format : Matroska
Format version : Version 4
File size : 3.19 GiB
Duration : 1 h 41 min
Overall bit rate : 4 515 kb/s
Writing frontend : TombDoc

Video
ID : 1
Format : HEVC
Format/Info : High Efficiency Video Coding
Format profile : Main [email protected]@Main
Codec ID : V_MPEGH/ISO/HEVC
Duration : 1 h 41 min
Bit rate : 3 646 kb/s
Width : 1 920 pixels
Height : 800 pixels
Display aspect ratio : 2.40:1
Frame rate mode : Constant
Frame rate : 23.976 (24000/1001) FPS
Color space : YUV
Chroma subsampling : 4:2:0
Bit depth : 10 bits
Bits/(Pixel*Frame) : 0.099
Stream size : 2.58 GiB (81%)
Writing library : x265 3.0_RC+11-9a975542fe39:[Windows][MSVC 1920][64 bit] 10bit
Encoding settings : cpuid=1049583 / frame-threads=3 / numa-pools=8 / wpp / no-pmode / no-pme / no-psnr / no-ssim / log-level=2 / input-csp=1 / input-res=1920x800 / interlace=0 / total-frames=145537 / level-idc=0 / high-tier=1 / uhd-bd=0 / ref=4 / no-allow-non-conformance / no-repeat-headers / annexb / no-aud / no-hrd / info / hash=0 / no-temporal-layers / open-gop / min-keyint=23 / keyint=250 / gop-lookahead=0 / bframes=8 / b-adapt=2 / b-pyramid / bframe-bias=0 / rc-lookahead=25 / lookahead-slices=4 / scenecut=40 / radl=0 / no-splice / no-intra-refresh / ctu=64 / min-cu-size=8 / rect / no-amp / max-tu-size=32 / tu-inter-depth=1 / tu-intra-depth=1 / limit-tu=0 / rdoq-level=2 / dynamic-rd=0.00 / ssim-rd / signhide / no-tskip / nr-intra=0 / nr-inter=0 / no-constrained-intra / strong-intra-smoothing / max-merge=3 / limit-refs=3 / limit-modes / me=3 / subme=3 / merange=57 / temporal-mvp / weightp / no-weightb / no-analyze-src-pics / deblock=0:0 / sao / no-sao-non-deblock / rd=4 / no-early-skip / rskip / no-fast-intra / no-tskip-fast / no-cu-lossless / no-b-intra / no-splitrd-skip / rdpenalty=0 / psy-rd=0.00 / psy-rdoq=1.00 / no-rd-refine / no-lossless / cbqpoffs=0 / crqpoffs=0 / rc=abr / bitrate=3650 / qcomp=0.60 / qpstep=4 / stats-write=0 / stats-read=2 / cplxblur=20.0 / qblur=0.5 / ipratio=1.40 / pbratio=1.30 / aq-mode=3 / aq-strength=1.00 / cutree / zone-count=0 / no-strict-cbr / qg-size=32 / no-rc-grain / qpmax=69 / qpmin=0 / no-const-vbv / sar=0 / overscan=0 / videoformat=5 / range=0 / colorprim=2 / transfer=2 / colormatrix=2 / chromaloc=0 / display-window=0 / max-cll=0,0 / min-luma=0 / max-luma=1023 / log2-max-poc-lsb=8 / vui-timing-info / vui-hrd-info / slices=1 / no-opt-qp-pps / no-opt-ref-list-length-pps / no-multi-pass-opt-rps / scenecut-bias=0.05 / no-opt-cu-delta-qp / aq-motion / no-hdr / no-hdr-opt / no-dhdr10-opt / no-idr-recovery-sei / analysis-reuse-level=5 / scale-factor=0 / refine-intra=0 / refine-inter=0 / refine-mv=0 / refine-ctu-distortion=0 / no-limit-sao / ctu-info=0 / no-lowpass-dct / refine-analysis-type=0 / copy-pic=1 / max-ausize-factor=1.0 / no-dynamic-refine / no-single-sei / hevc-aq / qp-adaptation-range=1.00
Default : Yes
Forced : No

Audio #1
ID : 2
Format : AC-3
Format/Info : Audio Coding 3
Commercial name : Dolby Digital
Codec ID : A_AC3
Duration : 1 h 41 min
Bit rate mode : Constant
Bit rate : 448 kb/s
Channel(s) : 6 channels
Channel layout : L R C LFE Ls Rs
Sampling rate : 48.0 kHz
Frame rate : 31.250 FPS (1536 SPF)
Bit depth : 16 bits
Compression mode : Lossy
Stream size : 324 MiB (10%)
Title : Org BD 5.1 448Kbps ~ TombDoc
Language : Hindi
Service kind : Complete Main
Default : Yes
Forced : Yes

Audio #2
ID : 3
Format : AC-3
Format/Info : Audio Coding 3
Commercial name : Dolby Digital
Codec ID : A_AC3
Duration : 1 h 41 min
Bit rate mode : Constant
Bit rate : 384 kb/s
Channel(s) : 6 channels
Channel layout : L R C LFE Ls Rs
Sampling rate : 48.0 kHz
Frame rate : 31.250 FPS (1536 SPF)
Bit depth : 16 bits
Compression mode : Lossy
Stream size : 278 MiB (9%)
Title : DD 5.1 English
Language : English
Service kind : Complete Main
Default : No
Forced : No

Text #1
ID : 4
Format : PGS
Muxing mode : zlib
Codec ID : S_HDMV/PGS
Codec ID/Info : Picture based subtitle format used on BDs/HD-DVDs
Duration : 1 h 40 min
Bit rate : 32.8 kb/s
Count of elements : 3092
Stream size : 23.5 MiB (1%)
Title : Hindi BD-PGS
Language : Hindi
Default : Yes
Forced : Yes

Text #2
ID : 5
Format : PGS
Muxing mode : zlib
Codec ID : S_HDMV/PGS
Codec ID/Info : Picture based subtitle format used on BDs/HD-DVDs
Duration : 1 h 40 min
Bit rate : 45.6 kb/s
Count of elements : 3672
Stream size : 32.6 MiB (1%)
Title : Eng BD-PGS
Language : English
Default : No
Forced : No

Menu
00:00:00.000 : en:Chapter 01
00:04:36.318 : en:Chapter 02
00:07:49.302 : en:Chapter 03
00:12:55.525 : en:Chapter 04
00:18:50.004 : en:Chapter 05
00:22:23.008 : en:Chapter 06
00:29:13.085 : en:Chapter 07
00:33:18.830 : en:Chapter 08
00:37:56.399 : en:Chapter 09
00:42:57.825 : en:Chapter 10
00:45:34.357 : en:Chapter 11
00:48:06.675 : en:Chapter 12
00:50:58.806 : en:Chapter 13
00:54:31.685 : en:Chapter 14
00:59:05.959 : en:Chapter 15
01:03:52.787 : en:Chapter 16
01:08:44.787 : en:Chapter 17
01:14:52.279 : en:Chapter 18
01:19:29.348 : en:Chapter 19
01:23:44.770 : en:Chapter 20
01:26:54.751 : en:Chapter 21
01:29:38.832 : en:Chapter 22
01:32:49.272 : en:Chapter 23
01:35:36.648 : en:Chapter 24



Code:

Source: Gifted 2017 1080p CEE Blu-ray AVC DTS-HD MA 5.1






Sharing Widget


No Comments For This Torrent . Be The First to Comment

You must Login to Comment . Click Here to Login

Menu 1

Some content in menu 1.

Gifted (2017) 1080p 10bit Bluray x265 HEVC [Org BD 5 1 Hindi + DD 5 1 (Size: 3.2 GB)
  Gifted (2017) 1080p 10bit Bluray x265 HEVC [Org BD 5 1 Hindi + DD 5 1 3.2 GB
tracker name
udp://tracker.leechers-paradise.org:6969/announce
udp://zer0day.ch:1337/announce
udp://open.demonii.com:1337/announce
udp://tracker.coppersurfer.tk:6969/announce
udp://exodus.desync.com:6969/announce
µTorrent compatible trackers list

Relative Torrents

Torrent Name Size Age SEED LEECH
NCIS New Orleans S05E14 720p HDTV x264-KLLERS
Posted by    Cristie   in   TV
989.3 MB 3 minutes 976 114
NCIS New Orleans S05E14 HDTV x264-KILLER
Posted by    Cristie   in   TV
285.8 MB 3 minutes 722 275
Married At First Sight AU S06E15 720p HDV x264-PLUTONiUM [eztv]
Posted by    EZTVag   in   TV
1.1 GB 3 minutes 310 607
Lethal Weapon S03E14 WEB x264-TBS
Posted by    Cristie   in   TV
354.6 MB 3 minutes 747 390
Married At First Sight AU S06E15 HDTV x24-PLUTONiUM [eztv]
Posted by    EZTVag   in   TV
372.9 MB 3 minutes 525 279