Between Worlds 2018 720p BluRay X264 ENG Torrent Free Download

Seeders : 704   &   Leechers : 367      11-02-2019 (1 week)
Between Worlds 2018 720p BluRay X264 ENG Torrent Download
Added: ago by LifeLongg ***** in Movies   1.3 GB   Hits : 14
Info Hash: 896BEBCCCC8186EEA760063F1BEFECEDC279A629 Download
Between Worlds 2018 720p BluRay X264 ENG Torrent Download

Anonymous and Direct Download movies , software , shows...

Fast Safe Anonymous
movies, software, shows...
Between Worlds
Fantasy /Thriller  .   90 min   5.3/10
Director : Maria Pulera  
Writer: Maria Pulera  
Tags: Between  Worlds  2018  720p  BluRay  X264  

Released:
21 Dec 2018
Joe meets a mother who can contact spirits when suffocating. Her daughter is dying when Joe helps the mother spiritually contact the daughter and save her. Unfortunately, the spirit in the daughter's body is now that of Joe's dead wife.

Torrent Description



Quote:




******************************Thumbnail:**********************



******************************Screenshots:********************

Screenshot 1

Screenshot 2

Screenshot 3

Screenshot 4

Screenshot 5

Screenshot 6

Screenshot 7

Screenshot 8

Screenshot 9

Screenshot 0


******************************************************

18+.Between.Worlds.2018.720p.BluRay.X264.ENG.SUB.LLG.mp4
Format : MPEG-4
Format profile : Base Media
Codec ID : isom (isom/iso2/avc1/mp41)
File size : 1.26 GiB
Duration : 1 h 30 min
Overall bit rate mode : Variable
Overall bit rate : 1 997 kb/s


Video
ID : 1
Format : AVC
Format/Info : Advanced Video Codec
Format profile : [email protected]
Format settings : CABAC / 1 Ref Frames
Format settings, CABAC : Yes
Format settings, RefFrames : 1 frame
Codec ID : avc1
Codec ID/Info : Advanced Video Coding
Duration : 1 h 30 min
Bit rate mode : Variable
Bit rate : 1 481 kb/s
Maximum bit rate : 4 500 kb/s
Width : 1 280 pixels
Height : 690 pixels
Display aspect ratio : 1.85:1
Frame rate mode : Constant
Frame rate : 23.976 (23976/1000) FPS
Color space : YUV
Chroma subsampling : 4:2:0
Bit depth : 8 bits
Scan type : Progressive
Bits/(Pixel*Frame) : 0.070
Stream size : 956 MiB (74%)
Language : English


Audio
ID : 2
Format : AC-3
Format/Info : Audio Coding 3
Commercial name : Dolby Digital
Codec ID : ac-3
Duration : 1 h 30 min
Bit rate mode : Constant
Bit rate : 512 kb/s
Channel(s) : 6 channels
Channel layout : L R C LFE Ls Rs
Sampling rate : 48.0 kHz
Frame rate : 31.250 FPS (1536 SPF)
Bit depth : 16 bits
Compression mode : Lossy
Stream size : 331 MiB (26%)
Service kind : Complete Main
Default : Yes
Alternate group : 1



********************************************************





Sharing Widget


No Comments For This Torrent . Be The First to Comment

You must Login to Comment . Click Here to Login

Menu 1

Some content in menu 1.

Between Worlds 2018 720p BluRay X264 ENG SUB LLG (Size: 1.3 GB)
  Between Worlds 2018 720p BluRay X264 ENG SUB LLG 1.3 GB
tracker name
udp://tracker.leechers-paradise.org:6969/announce
udp://zer0day.ch:1337/announce
udp://open.demonii.com:1337/announce
udp://tracker.coppersurfer.tk:6969/announce
udp://exodus.desync.com:6969/announce
µTorrent compatible trackers list

Relative Torrents

Torrent Name Size Age SEED LEECH
Counting On S09E02 Jinger Has a Baby 480 x264-mSD [eztv]
Posted by    EZTVag   in   TV
235.5 MB 1 minute 850 631
They Call Me Trinity (1970) [BluRay] [72p] [YTS] [YIFY]
Posted by    YTSAGx   in   Movies
948.8 MB 1 minute 797 545
Maine Cabin Masters S03E11 A Legacy Presrved 480p x264-mSD [eztv]
Posted by    EZTVag   in   TV
316.4 MB 11 minutes 883 730
Dispatches 2019 02 18 Grenfell-Did The Fre Brigade Fail 480p x264-mSD [eztv]
Posted by    EZTVag   in   TV
74.7 MB 11 minutes 262 749
Counting On S09E02 Jinger Has a Baby 720 WEB x264-CAFFEiNE [eztv]
Posted by    EZTVag   in   TV
975.5 MB 11 minutes 172 485